Genre: Drama
IMDB Rating: 4 ( http://www.imdb.com/title/tt3741150/ )
Directed by: Nicholas Winter
Starring: Aggy K. Adams / Sapphire Elia / Ali Bastian / Madalina Bellariu Ion / Vic Waghorn / Simon Cotton / Chris Simmons / Eric Colvin

Plot:

Adams, Sapphire Elia, and Ali Bastian. Known for his brutally violent policing tactics, suspended police officer Michael Clarke is sent undercover to infiltrate the notorious London…

Trailer:

INFO:

General
Complete name : Undercover Hooligan 2016 1080p WEB-DL H264-FGT
Format : Matroska
Format version : Version 4
File size : 3.12 GiB
Duration : 1 h 30 min
Overall bit rate : 4 957 kb/s
Movie name : Undercover.Hooligan.2016.1080p.WEB-DL.DD5.1.H264-FGT
Encoded date : UTC 2017-02-27 16:15:49
Writing application : mkvmerge v9.9.0 ('Pick Up') 64bit
Writing library : libebml v1.3.4 + libmatroska v1.4.5
Cover : Yes

Video
ID : 1
Format : AVC
Format/Info : Advanced Video Codec
Format profile : High@L4
Format settings : CABAC / 5 Ref Frames
Format settings, CABAC : Yes
Format settings, Reference frames : 5 frames
Codec ID : V_MPEG4/ISO/AVC
Duration : 1 h 30 min
Bit rate : 4 474 kb/s
Width : 1 916 pixels
Height : 814 pixels
Display aspect ratio : 2.35:1
Frame rate mode : Constant
Frame rate : 25.000 FPS
Color space : YUV
Chroma subsampling : 4:2:0
Bit depth : 8 bits
Scan type : Progressive
Bits/(Pixel*Frame) : 0.115
Stream size : 2.82 GiB (90%)
Title : Undercover.Hooligan.2016.1080p.WEB-DL.DD5.1.H264-FGT
Language : English
Default : Yes
Forced : No
Color range : Limited
Color primaries : BT.709
Transfer characteristics : BT.709
Matrix coefficients : BT.709

Audio
ID : 2
Format : AC-3
Format/Info : Audio Coding 3
Commercial name : Dolby Digital
Codec ID : A_AC3
Duration : 1 h 30 min
Bit rate mode : Constant
Bit rate : 384 kb/s
Channel(s) : 6 channels
Channel layout : L R C LFE Ls Rs
Sampling rate : 48.0 kHz
Frame rate : 31.250 FPS (1536 SPF)
Bit depth : 16 bits
Compression mode : Lossy
Stream size : 247 MiB (8%)
Title : Undercover.Hooligan.2016.1080p.WEB-DL.DD5.1.H264-FGT
Language : English
Service kind : Complete Main
Default : Yes
Forced : No

Screens:

Download Links :