Genre: Adventure / Comedy / Family / Musical
IMDB Rating: 7.9 ( http://www.imdb.com/title/tt0049096/ )
Directed by: Melvin Frank / Norman Panama
Starring: Danny Kaye / Glynis Johns / Basil Rathbone / Angela Lansbury / Cecil Parker / Mildred Natwick / Robert Middleton / Michael Pate

Plot:

The throne of rightful King of England, the small baby with the purple pimpernel birthmark, has been usurped by the evil King Roderick I (Cecil Parker). Only the Black Fox (Edward Ashley) can restore the true King to the throne – and all he needs is the King’s key to a secret tunnel. And while he’s trying to steal it, someone has to change the King’s diapers. The task falls to Hubert Hawkins (Danny Kaye), the gentlest member of the Fox’s band. The Fox’s Lieutenant, Maid Jean (Glynis Johns), guards Hawkins and the baby while they travel, but when they meet the King’s new jester on the road, they decide to initiate a daring plan for Hawkins to replace him, become an intimate at the court, and steal the key. So, humble Hawkins becomes Giacomo: the King of jesters and jester to the King. But things begin to get zany when the King’s daughter falls for Giacomo, the King falls for Jean, people randomly sing what are supposed to be recognition codes, and a witch with very effective spells (and poison pellets) begins to interfere. Written by Kathy Li

INFO:

General
Complete name : The Court Jester 1955 1080p WEBRip DD2 0 x264-SbR
Format : Matroska
Format version : Version 2
File size : 9.86 GiB
Duration : 1 h 41 min
Overall bit rate mode : Variable
Overall bit rate : 13.9 Mb/s
Encoded date : UTC 2017-02-22 20:39:35
Writing application : mkvmerge v9.9.0 ('Pick Up') 64bit
Writing library : libebml v1.3.4 + libmatroska v1.4.5

Video
ID : 1
Format : AVC
Format/Info : Advanced Video Codec
Format profile : High@L4
Format settings : CABAC / 4 Ref Frames
Format settings, CABAC : Yes
Format settings, Reference frames : 4 frames
Codec ID : V_MPEG4/ISO/AVC
Duration : 1 h 41 min
Bit rate mode : Variable
Bit rate : 13.7 Mb/s
Maximum bit rate : 15.0 Mb/s
Width : 1 920 pixels
Height : 1 080 pixels
Display aspect ratio : 16:9
Frame rate mode : Constant
Frame rate : 23.976 (24000/1001) FPS
Color space : YUV
Chroma subsampling : 4:2:0
Bit depth : 8 bits
Scan type : Progressive
Bits/(Pixel*Frame) : 0.276
Stream size : 9.70 GiB (98%)
Writing library : x264 core 148 r2623 d5b2374
Language : English
Default : Yes
Forced : No
Color range : Limited
Color primaries : BT.709
Transfer characteristics : BT.709
Matrix coefficients : BT.709

Audio
ID : 2
Format : E-AC-3
Format/Info : Enhanced AC-3
Commercial name : Dolby Digital Plus
Codec ID : A_EAC3
Duration : 1 h 41 min
Bit rate mode : Constant
Bit rate : 224 kb/s
Channel(s) : 2 channels
Channel layout : L R
Sampling rate : 48.0 kHz
Frame rate : 31.250 FPS (1536 SPF)
Compression mode : Lossy
Stream size : 162 MiB (2%)
Language : English
Service kind : Complete Main
Default : Yes
Forced : No

Text #1
ID : 3
Format : UTF-8
Codec ID : S_TEXT/UTF8
Codec ID/Info : UTF-8 Plain Text
Duration : 1 h 40 min
Bit rate : 85 b/s
Count of elements : 1556
Stream size : 62.9 KiB (0%)
Language : English
Default : No
Forced : No

Text #2
ID : 4
Format : UTF-8
Codec ID : S_TEXT/UTF8
Codec ID/Info : UTF-8 Plain Text
Duration : 1 h 40 min
Bit rate : 86 b/s
Count of elements : 2412
Stream size : 63.8 KiB (0%)
Title : SDH
Language : English
Default : No
Forced : No

Screens:

Download Links :

https://nitroflare.com/view/7BF16116E8EFC82/fhd.link_The.Court.Jester.1955.1080p.WEBRip.part1.rar
https://nitroflare.com/view/1FB8A303D19C9F9/fhd.link_The.Court.Jester.1955.1080p.WEBRip.part2.rar
https://nitroflare.com/view/C6F7C374CE7DF8D/fhd.link_The.Court.Jester.1955.1080p.WEBRip.part3.rar
https://nitroflare.com/view/D0B7784F328A9E5/fhd.link_The.Court.Jester.1955.1080p.WEBRip.part4.rar
https://nitroflare.com/view/97C07DBF2AA6F05/fhd.link_The.Court.Jester.1955.1080p.WEBRip.part5.rar
https://nitroflare.com/view/99BF338EB302788/fhd.link_The.Court.Jester.1955.1080p.WEBRip.part6.rar

http://usenet.fun/a97yewl5u/fhd.link_The.Court.Jester.1955.1080p.WEBRip.part1.rar
http://usenet.fun/g27ime2ir/fhd.link_The.Court.Jester.1955.1080p.WEBRip.part2.rar
http://usenet.fun/uebb4vfbj/fhd.link_The.Court.Jester.1955.1080p.WEBRip.part3.rar
http://usenet.fun/fso15p5rj/fhd.link_The.Court.Jester.1955.1080p.WEBRip.part4.rar
http://usenet.fun/2xcxog74u/fhd.link_The.Court.Jester.1955.1080p.WEBRip.part5.rar
http://usenet.fun/mq6b79hwp/fhd.link_The.Court.Jester.1955.1080p.WEBRip.part6.rar