Genre: Action / Adventure / Sci-Fi
IMDB Rating: 6.4 ( http://www.imdb.com/title/tt6450804/ )
Directed by: Tim Miller
Starring: Linda Hamilton / Arnold Schwarzenegger / Mackenzie Davis / Natalia Reyes / Gabriel Luna / Diego Boneta / Ferran Fernndez / Tristn Ulloa

Plot:

Terminator: Dark Fate is a movie starring Linda Hamilton, Arnold Schwarzenegger, and Mackenzie Davis. An augmented human and Sarah Connor must stop an advanced liquid Terminator, from hunting down a young girl, whose fate is…

Trailer:

INFO:

General
Format : Matroska
Format version : Version 4
File size : 8.14 GiB
Duration : 2 h 8 min
Overall bit rate : 9 097 kb/s

Video
ID : 1
Format : AVC
Format/Info : Advanced Video Codec
Format profile : High@L4
Format settings : CABAC / 4 Ref Frames
Format settings, CABAC : Yes
Format settings, Reference frames : 4 frames
Codec ID : V_MPEG4/ISO/AVC
Duration : 2 h 8 min
Bit rate mode : Constant
Bit rate : 8 455 kb/s
Nominal bit rate : 10 000 kb/s
Width : 1 920 pixels
Height : 800 pixels
Display aspect ratio : 2.40:1
Frame rate mode : Constant
Frame rate : 23.976 (24000/1001) FPS
Color space : YUV
Chroma subsampling : 4:2:0
Bit depth : 8 bits
Scan type : Progressive
Bits/(Pixel*Frame) : 0.230
Stream size : 7.57 GiB (93%)
Default : Yes
Forced : No
Color range : Limited
Color primaries : BT.709
Transfer characteristics : BT.709
Matrix coefficients : BT.709

Audio
ID : 2
Format : E-AC-3
Format/Info : Enhanced AC-3
Commercial name : Dolby Digital Plus
Codec ID : A_EAC3
Duration : 2 h 8 min
Bit rate mode : Constant
Bit rate : 640 kb/s
Channel(s) : 6 channels
Channel layout : L R C LFE Ls Rs
Sampling rate : 48.0 kHz
Frame rate : 31.250 FPS (1536 SPF)
Compression mode : Lossy
Stream size : 586 MiB (7%)
Language : English
Service kind : Complete Main
Default : Yes
Forced : No

Text #1
ID : 3
Format : UTF-8
Codec ID : S_TEXT/UTF8
Codec ID/Info : UTF-8 Plain Text
Duration : 1 h 57 min
Bit rate : 32 b/s
Count of elements : 1121
Stream size : 27.9 KiB (0%)
Language : English
Default : No
Forced : No

Text #2
ID : 4
Format : UTF-8
Codec ID : S_TEXT/UTF8
Codec ID/Info : UTF-8 Plain Text
Duration : 1 h 57 min
Bit rate : 39 b/s
Count of elements : 1430
Stream size : 33.6 KiB (0%)
Title : SDH
Language : English
Default : No
Forced : No

Screens:

Download Links :

https://nitroflare.com/view/A8AD08F56C96D85/fhd.link_Terminator.Dark.Fate.2019.1080p.AMZN.WEB-DL.DDP5.1.H.part1.rar
https://nitroflare.com/view/0DD61BE0EE78B1D/fhd.link_Terminator.Dark.Fate.2019.1080p.AMZN.WEB-DL.DDP5.1.H.part2.rar
https://nitroflare.com/view/713BA69835A980E/fhd.link_Terminator.Dark.Fate.2019.1080p.AMZN.WEB-DL.DDP5.1.H.part3.rar
https://nitroflare.com/view/2EC9C5D95ACDBB8/fhd.link_Terminator.Dark.Fate.2019.1080p.AMZN.WEB-DL.DDP5.1.H.part4.rar
https://nitroflare.com/view/B825F2A13F64068/fhd.link_Terminator.Dark.Fate.2019.1080p.AMZN.WEB-DL.DDP5.1.H.part5.rar

http://usenet.fun/ocozmo8kr/fhd.link_Terminator.Dark.Fate.2019.1080p.AMZN.WEB-DL.DDP5.1.H.part1.rar
http://usenet.fun/e6hexivc3/fhd.link_Terminator.Dark.Fate.2019.1080p.AMZN.WEB-DL.DDP5.1.H.part2.rar
http://usenet.fun/ht6h0hwea/fhd.link_Terminator.Dark.Fate.2019.1080p.AMZN.WEB-DL.DDP5.1.H.part3.rar
http://usenet.fun/hluadhkv0/fhd.link_Terminator.Dark.Fate.2019.1080p.AMZN.WEB-DL.DDP5.1.H.part4.rar
http://usenet.fun/87jwv6deg/fhd.link_Terminator.Dark.Fate.2019.1080p.AMZN.WEB-DL.DDP5.1.H.part5.rar